osu file format v14

[General]
AudioFilename: Ende.ogg
AudioLeadIn: 1500
PreviewTime: 104365
Countdown: 0
SampleSet: Soft
StackLeniency: 0.7
Mode: 3
LetterboxInBreaks: 0
WidescreenStoryboard: 0

[Editor]
Bookmarks: 1176,5976,15576,25176,34776,41976,44376,53976,57576,58776,63576,68376,77976,83976,85176,94776,104376,113976,121176,122376,123576,129276
DistanceSpacing: 1
BeatDivisor: 4
GridSize: 4
TimelineZoom: 1

[Metadata]
Title:Ende
TitleUnicode:Ende
Artist:bj.HaLo
ArtistUnicode:bj.HaLo
Creator:Loctav
Version:NM
Source:BMS
Tags:Trance Core BOF 2010 mania
BeatmapID:267375
BeatmapSetID:79132

[Difficulty]
HPDrainRate:6
CircleSize:7
OverallDifficulty:6
ApproachRate:5
SliderMultiplier:1.4
SliderTickRate:1

[Events]
//Background and Video events
0,0,"bg.jpg",0,0
//Break Periods
//Storyboard Layer 0 (Background)
//Storyboard Layer 1 (Fail)
//Storyboard Layer 2 (Pass)
//Storyboard Layer 3 (Foreground)
//Storyboard Sound Samples
//Background Colour Transformations
3,100,163,162,255

[TimingPoints]
1176,300,4,2,1,60,1,0
34776,-100,4,2,1,60,0,1
53976,-100,4,2,1,60,0,0
85176,-100,4,2,1,60,0,1
94776,-100,4,2,1,60,0,0
104376,-100,4,2,1,60,0,1
123576,-100,4,2,1,60,0,0

[HitObjects]
36,192,1176,1,2,0:0:0:0:
475,192,1476,1,2,0:0:0:0:
109,192,1776,1,2,0:0:0:0:
182,192,2076,1,2,0:0:0:0:
256,192,2226,1,2,0:0:0:0:
329,192,2376,1,2,0:0:0:0:
182,192,2676,1,2,0:0:0:0:
402,192,2976,1,2,0:0:0:0:
109,192,3276,1,2,0:0:0:0:
256,192,3576,128,4,4476:0:0:0:0:
109,192,4776,1,2,0:0:0:0:
182,192,4926,1,2,0:0:0:0:
256,192,5076,1,0,0:0:0:0:
329,192,5226,1,2,0:0:0:0:
475,192,5526,1,2,0:0:0:0:
402,192,5676,1,2,0:0:0:0:
329,192,5826,1,0,0:0:0:0:
109,192,5976,128,8,6276:0:0:0:0:
329,192,6276,1,2,3:0:0:0:
109,192,6576,128,8,6876:0:0:0:0:
329,192,6876,1,2,3:0:0:0:
109,192,7176,128,8,7476:0:0:0:0:
329,192,7476,1,2,3:0:0:0:
109,192,7776,128,8,8076:0:0:0:0:
329,192,8076,1,2,3:0:0:0:
329,192,8226,1,2,3:0:0:0:
182,192,8376,128,8,8676:0:0:0:0:
402,192,8676,1,2,3:0:0:0:
182,192,8976,128,8,9276:0:0:0:0:
402,192,9276,1,2,3:0:0:0:
182,192,9576,128,8,9876:0:0:0:0:
402,192,9876,1,2,3:0:0:0:
109,192,10176,1,8,3:0:0:0:
109,192,10326,1,8,3:0:0:0:
256,192,10476,1,2,3:0:0:0:
256,192,10626,1,2,3:0:0:0:
475,192,10776,128,8,11076:0:0:0:0:
256,192,11076,1,2,3:0:0:0:
475,192,11376,128,8,11676:0:0:0:0:
256,192,11676,1,2,3:0:0:0:
475,192,11976,128,8,12276:0:0:0:0:
256,192,12276,1,2,3:0:0:0:
475,192,12576,128,8,12876:0:0:0:0:
256,192,12876,1,2,3:0:0:0:
402,192,13176,128,8,13476:0:0:0:0:
182,192,13476,1,2,3:0:0:0:
402,192,13776,128,8,14076:0:0:0:0:
182,192,14076,1,2,3:0:0:0:
402,192,14376,128,8,14676:0:0:0:0:
182,192,14676,1,2,3:0:0:0:
402,192,14976,1,8,3:0:0:0:
329,192,15126,128,2,15276:0:0:0:0:
256,192,15426,1,2,3:0:0:0:
475,192,15576,1,2,0:0:0:0:
36,192,15876,1,2,0:0:0:0:
402,192,16176,1,2,0:0:0:0:
329,192,16476,1,2,0:0:0:0:
256,192,16626,1,2,0:0:0:0:
182,192,16776,1,2,0:0:0:0:
329,192,17076,1,2,0:0:0:0:
109,192,17376,1,2,0:0:0:0:
402,192,17676,1,2,0:0:0:0:
36,192,17976,1,2,0:0:0:0:
182,192,18276,1,2,0:0:0:0:
329,192,18576,1,2,0:0:0:0:
475,192,18876,1,2,0:0:0:0:
329,192,19176,1,2,0:0:0:0:
256,192,19326,1,2,0:0:0:0:
182,192,19476,1,0,0:0:0:0:
256,192,19626,1,2,0:0:0:0:
182,192,19926,1,2,0:0:0:0:
256,192,20076,1,2,0:0:0:0:
329,192,20226,1,0,0:0:0:0:
36,192,20376,1,2,0:0:0:0:
475,192,20676,1,2,0:0:0:0:
109,192,20976,1,2,0:0:0:0:
182,192,21276,1,2,0:0:0:0:
256,192,21426,1,2,0:0:0:0:
329,192,21576,1,2,0:0:0:0:
182,192,21876,1,2,0:0:0:0:
402,192,22176,1,2,0:0:0:0:
109,192,22476,1,2,0:0:0:0:
475,192,22776,1,2,0:0:0:0:
329,192,23076,1,2,0:0:0:0:
182,192,23376,1,2,0:0:0:0:
36,192,23676,1,2,0:0:0:0:
182,192,23976,1,2,0:0:0:0:
256,192,24126,1,2,0:0:0:0:
329,192,24276,1,0,0:0:0:0:
256,192,24426,1,2,0:0:0:0:
329,192,24726,1,2,0:0:0:0:
256,192,24876,1,2,0:0:0:0:
182,192,25026,1,0,0:0:0:0:
36,192,25176,1,0,0:0:0:0:
182,192,25326,1,0,0:0:0:0:
256,192,25476,1,8,0:0:0:0:
475,192,25776,1,0,0:0:0:0:
329,192,25926,1,0,0:0:0:0:
256,192,26076,1,8,0:0:0:0:
36,192,26376,1,0,0:0:0:0:
182,192,26526,1,0,0:0:0:0:
256,192,26676,1,8,0:0:0:0:
475,192,26976,1,0,0:0:0:0:
329,192,27126,1,0,0:0:0:0:
256,192,27276,1,8,0:0:0:0:
109,192,27576,1,0,0:0:0:0:
402,192,27726,1,0,0:0:0:0:
182,192,27876,1,8,0:0:0:0:
402,192,28176,1,0,0:0:0:0:
109,192,28326,1,0,0:0:0:0:
329,192,28476,1,8,0:0:0:0:
109,192,28776,1,0,0:0:0:0:
402,192,28926,1,0,0:0:0:0:
36,192,29076,1,8,0:0:0:0:
402,192,29376,1,0,0:0:0:0:
109,192,29526,1,0,0:0:0:0:
475,192,29676,1,8,0:0:0:0:
475,192,29826,1,8,0:0:0:0:
182,192,29976,1,0,0:0:0:0:
402,192,30126,1,0,0:0:0:0:
109,192,30276,1,8,0:0:0:0:
182,192,30576,1,0,0:0:0:0:
256,192,30726,1,0,0:0:0:0:
109,192,30876,1,8,0:0:0:0:
329,192,31176,1,0,0:0:0:0:
256,192,31326,1,0,0:0:0:0:
402,192,31476,1,8,0:0:0:0:
182,192,31776,1,0,0:0:0:0:
256,192,31926,1,0,0:0:0:0:
109,192,32076,1,8,0:0:0:0:
36,192,32376,1,0,0:0:0:0:
475,192,32526,1,0,0:0:0:0:
256,192,32676,1,8,0:0:0:0:
475,192,32976,1,0,0:0:0:0:
36,192,33126,1,0,0:0:0:0:
256,192,33276,1,8,0:0:0:0:
36,192,33576,1,0,0:0:0:0:
475,192,33726,1,0,0:0:0:0:
256,192,33876,1,8,0:0:0:0:
475,192,34176,1,0,0:0:0:0:
36,192,34326,1,0,0:0:0:0:
256,192,34476,1,8,0:0:0:0:
256,192,34626,1,8,0:0:0:0:
182,192,34776,128,0,35376:0:0:0:0:
329,192,35376,1,2,0:0:0:0:
36,192,35526,1,0,0:0:0:0:
109,192,35676,1,2,0:0:0:0:
182,192,35826,1,2,0:0:0:0:
475,192,35976,1,2,0:0:0:0:
402,192,36126,1,0,0:0:0:0:
329,192,36276,1,0,0:0:0:0:
109,192,36426,1,0,0:0:0:0:
329,192,36576,128,0,37176:0:0:0:0:
182,192,37176,1,2,0:0:0:0:
109,192,37326,1,0,0:0:0:0:
36,192,37476,1,2,0:0:0:0:
329,192,37626,1,2,0:0:0:0:
402,192,37776,1,2,0:0:0:0:
475,192,37926,1,2,0:0:0:0:
256,192,38076,1,0,0:0:0:0:
182,192,38226,1,0,0:0:0:0:
109,192,38376,1,2,0:0:0:0:
182,192,38676,1,2,0:0:0:0:
329,192,38976,1,2,0:0:0:0:
402,192,39276,1,2,0:0:0:0:
256,192,39576,128,2,39876:0:0:0:0:
36,192,39876,1,2,0:0:0:0:
475,192,40176,1,2,0:0:0:0:
109,192,40476,1,2,0:0:0:0:
402,192,40776,1,2,0:0:0:0:
329,192,40926,1,2,0:0:0:0:
256,192,41076,1,0,0:0:0:0:
182,192,41226,1,2,0:0:0:0:
109,192,41376,1,2,0:0:0:0:
256,192,41526,128,2,41976:0:0:0:0:
329,192,41976,1,2,0:0:0:0:
182,192,42276,1,2,0:0:0:0:
402,192,42576,1,2,0:0:0:0:
109,192,42876,1,2,0:0:0:0:
475,192,43176,1,2,0:0:0:0:
36,192,43476,1,2,0:0:0:0:
182,192,43776,1,2,0:0:0:0:
182,192,43926,128,6,44376:0:0:0:0:
256,192,44376,128,0,44976:0:0:0:0:
329,192,44976,1,2,0:0:0:0:
402,192,45126,1,0,0:0:0:0:
475,192,45276,1,2,0:0:0:0:
402,192,45426,1,2,0:0:0:0:
329,192,45576,1,2,0:0:0:0:
256,192,45726,1,0,0:0:0:0:
182,192,45876,1,2,0:0:0:0:
109,192,46026,1,2,0:0:0:0:
256,192,46176,128,0,46776:0:0:0:0:
109,192,46776,1,0,0:0:0:0:
182,192,46926,1,0,0:0:0:0:
256,192,47076,1,2,0:0:0:0:
402,192,47226,1,0,0:0:0:0:
329,192,47376,1,0,0:0:0:0:
256,192,47526,1,2,0:0:0:0:
109,192,47676,1,0,0:0:0:0:
36,192,47826,1,0,0:0:0:0:
109,192,47976,1,0,0:0:0:0:
256,192,48126,1,0,0:0:0:0:
402,192,48276,1,0,0:0:0:0:
475,192,48426,1,0,0:0:0:0:
402,192,48576,1,2,0:0:0:0:
256,192,48726,1,0,0:0:0:0:
182,192,48876,1,2,0:0:0:0:
329,192,49026,1,2,0:0:0:0:
256,192,49176,128,2,49476:0:0:0:0:
36,192,49476,1,2,0:0:0:0:
475,192,49776,1,2,0:0:0:0:
109,192,50076,1,2,0:0:0:0:
402,192,50376,1,2,0:0:0:0:
329,192,50526,1,2,0:0:0:0:
256,192,50676,1,0,0:0:0:0:
182,192,50826,1,2,0:0:0:0:
109,192,50976,1,2,0:0:0:0:
256,192,51126,128,2,51576:0:0:0:0:
329,192,51576,1,2,0:0:0:0:
182,192,51876,1,2,0:0:0:0:
402,192,52176,1,2,0:0:0:0:
109,192,52476,1,2,0:0:0:0:
36,192,52776,1,4,0:0:0:0:
36,192,52926,1,4,0:0:0:0:
256,192,53226,1,4,0:0:0:0:
329,192,53526,1,4,0:0:0:0:
182,192,53676,1,8,0:0:0:0:
329,192,53826,1,4,0:0:0:0:
36,192,53976,1,2,0:0:0:0:
402,192,54276,1,2,0:0:0:0:
109,192,54576,1,2,0:0:0:0:
182,192,54876,1,2,0:0:0:0:
256,192,55026,1,2,0:0:0:0:
329,192,55176,1,2,0:0:0:0:
182,192,55476,1,2,0:0:0:0:
402,192,55776,1,2,0:0:0:0:
109,192,56076,1,2,0:0:0:0:
329,192,56226,1,2,0:0:0:0:
36,192,56526,1,2,0:0:0:0:
402,192,56826,1,2,0:0:0:0:
256,192,57126,1,2,0:0:0:0:
109,192,57276,1,2,0:0:0:0:
36,192,57576,128,0,58776:0:0:0:0:
475,192,57576,128,0,58776:0:0:0:0:
109,192,58776,1,2,0:0:0:0:
182,192,58926,1,2,0:0:0:0:
256,192,59076,1,2,0:0:0:0:
36,192,59376,1,2,0:0:0:0:
256,192,59676,1,2,0:0:0:0:
475,192,59976,1,2,0:0:0:0:
256,192,60276,1,2,0:0:0:0:
109,192,60576,1,2,0:0:0:0:
256,192,60876,1,2,0:0:0:0:
402,192,61176,1,2,0:0:0:0:
256,192,61476,1,2,0:0:0:0:
182,192,61776,1,2,0:0:0:0:
329,192,62076,1,2,0:0:0:0:
402,192,62376,1,2,0:0:0:0:
329,192,62526,1,2,0:0:0:0:
256,192,62676,1,0,0:0:0:0:
182,192,62826,1,2,0:0:0:0:
329,192,62976,1,2,0:0:0:0:
256,192,63126,1,2,0:0:0:0:
182,192,63276,1,0,0:0:0:0:
109,192,63426,1,2,0:0:0:0:
402,192,63576,1,2,0:0:0:0:
329,192,63726,1,2,0:0:0:0:
256,192,63876,128,2,64176:0:0:0:0:
475,192,64176,1,2,0:0:0:0:
256,192,64476,1,2,0:0:0:0:
36,192,64776,128,2,65076:0:0:0:0:
256,192,65076,1,2,0:0:0:0:
402,192,65376,128,2,65676:0:0:0:0:
256,192,65676,1,2,0:0:0:0:
109,192,65976,128,2,66276:0:0:0:0:
256,192,66276,1,2,0:0:0:0:
329,192,66576,1,2,0:0:0:0:
402,192,66876,1,2,0:0:0:0:
36,192,67176,1,4,0:0:0:0:
36,192,67326,1,4,0:0:0:0:
256,192,67626,1,4,0:0:0:0:
475,192,67926,1,4,0:0:0:0:
402,192,68076,1,8,0:0:0:0:
475,192,68226,1,4,0:0:0:0:
36,192,68376,128,2,68676:0:0:0:0:
329,192,68526,1,0,0:0:0:0:
475,192,68676,128,10,68976:0:0:0:0:
109,192,68976,128,2,69276:0:0:0:0:
256,192,69126,1,0,0:0:0:0:
402,192,69276,128,8,69576:0:0:0:0:
256,192,69576,128,2,69876:0:0:0:0:
109,192,69726,1,0,0:0:0:0:
329,192,69876,128,8,70176:0:0:0:0:
402,192,70176,128,2,70476:0:0:0:0:
36,192,70326,1,0,0:0:0:0:
182,192,70476,128,10,70776:0:0:0:0:
329,192,70776,128,2,71076:0:0:0:0:
109,192,70926,1,0,0:0:0:0:
402,192,71076,128,8,71376:0:0:0:0:
475,192,71376,128,2,71676:0:0:0:0:
329,192,71526,1,0,0:0:0:0:
109,192,71676,128,10,71976:0:0:0:0:
402,192,71976,1,2,0:0:0:0:
329,192,72126,1,2,0:0:0:0:
256,192,72276,1,8,0:0:0:0:
182,192,72426,1,2,0:0:0:0:
329,192,72576,1,2,0:0:0:0:
256,192,72726,1,2,0:0:0:0:
182,192,72876,1,8,0:0:0:0:
109,192,73026,1,10,0:0:0:0:
475,192,73176,128,2,73476:0:0:0:0:
329,192,73326,1,0,0:0:0:0:
36,192,73476,128,10,73776:0:0:0:0:
402,192,73776,128,2,74076:0:0:0:0:
182,192,73926,1,0,0:0:0:0:
109,192,74076,128,10,74376:0:0:0:0:
256,192,74376,128,2,74676:0:0:0:0:
402,192,74526,1,0,0:0:0:0:
182,192,74676,128,10,74976:0:0:0:0:
109,192,74976,128,2,75276:0:0:0:0:
402,192,75126,1,0,0:0:0:0:
329,192,75276,128,10,75576:0:0:0:0:
182,192,75576,128,2,75876:0:0:0:0:
402,192,75726,1,0,0:0:0:0:
109,192,75876,128,10,76176:0:0:0:0:
36,192,76176,128,2,76476:0:0:0:0:
256,192,76326,1,0,0:0:0:0:
402,192,76476,128,10,76776:0:0:0:0:
256,192,76776,1,4,0:0:0:0:
256,192,76926,1,4,0:0:0:0:
182,192,77226,1,4,0:0:0:0:
109,192,77526,1,4,0:0:0:0:
182,192,77676,1,8,0:0:0:0:
109,192,77826,1,4,0:0:0:0:
402,192,78276,1,8,0:0:0:40:
402,192,78876,1,8,0:0:0:40:
402,192,79476,1,8,0:0:0:40:
402,192,80076,1,8,0:0:0:40:
402,192,80676,1,8,0:0:0:40:
402,192,81276,1,8,0:0:0:40:
402,192,81876,1,8,0:0:0:40:
402,192,82476,1,8,0:0:0:40:
402,192,83076,1,8,0:0:0:40:
256,192,83676,128,0,83976:0:0:0:0:
402,192,83676,1,8,0:0:0:40:
36,192,83976,1,2,0:0:0:0:
109,192,84126,1,2,0:0:0:0:
182,192,84276,1,0,0:0:0:0:
256,192,84426,1,2,0:0:0:0:
109,192,84576,1,2,0:0:0:0:
182,192,84726,1,0,0:0:0:0:
109,192,84876,1,2,0:0:0:0:
256,192,85026,1,0,0:0:0:0:
36,192,85176,128,2,85326:0:0:0:0:
329,192,85326,1,0,0:0:0:0:
475,192,85476,128,10,85626:0:0:0:0:
109,192,85776,128,2,85926:0:0:0:0:
256,192,85926,1,0,0:0:0:0:
402,192,86076,128,10,86226:0:0:0:0:
256,192,86376,128,2,86526:0:0:0:0:
109,192,86526,1,0,0:0:0:0:
329,192,86676,128,10,86826:0:0:0:0:
402,192,86976,128,2,87126:0:0:0:0:
109,192,87126,1,0,0:0:0:0:
182,192,87276,128,10,87426:0:0:0:0:
329,192,87576,128,2,87726:0:0:0:0:
36,192,87726,1,0,0:0:0:0:
402,192,87876,128,10,88026:0:0:0:0:
475,192,88176,128,2,88326:0:0:0:0:
256,192,88326,1,0,0:0:0:0:
109,192,88476,128,10,88626:0:0:0:0:
402,192,88776,1,2,0:0:0:0:
329,192,88926,1,2,0:0:0:0:
256,192,89076,1,8,0:0:0:0:
182,192,89226,1,2,0:0:0:0:
329,192,89376,1,2,0:0:0:0:
256,192,89526,1,2,0:0:0:0:
182,192,89676,1,8,0:0:0:0:
109,192,89826,1,10,0:0:0:0:
475,192,89976,128,2,90276:0:0:0:0:
182,192,90126,1,0,0:0:0:0:
36,192,90276,128,10,90576:0:0:0:0:
402,192,90576,128,2,90876:0:0:0:0:
182,192,90726,1,0,0:0:0:0:
109,192,90876,128,10,91176:0:0:0:0:
256,192,91176,128,2,91476:0:0:0:0:
109,192,91326,1,0,0:0:0:0:
182,192,91476,128,10,91776:0:0:0:0:
109,192,91776,128,2,92076:0:0:0:0:
475,192,91926,1,0,0:0:0:0:
329,192,92076,128,10,92376:0:0:0:0:
182,192,92376,128,2,92676:0:0:0:0:
36,192,92526,1,0,0:0:0:0:
109,192,92676,128,10,92976:0:0:0:0:
36,192,92976,128,2,93276:0:0:0:0:
256,192,93126,1,0,0:0:0:0:
402,192,93276,128,10,93576:0:0:0:0:
109,192,93576,1,2,0:0:0:0:
182,192,93726,1,2,0:0:0:0:
256,192,93876,1,8,0:0:0:0:
329,192,94026,1,2,0:0:0:0:
182,192,94176,1,2,0:0:0:0:
256,192,94326,1,2,0:0:0:0:
329,192,94476,1,8,0:0:0:0:
402,192,94626,1,10,0:0:0:0:
36,192,94776,1,2,0:0:0:0:
36,192,94926,1,2,0:0:0:0:
109,192,95076,128,10,95376:0:0:0:0:
329,192,95376,1,0,0:0:0:0:
182,192,95676,1,10,0:0:0:0:
475,192,95976,1,2,0:0:0:0:
475,192,96126,1,2,0:0:0:0:
402,192,96276,128,10,96576:0:0:0:0:
182,192,96576,1,0,0:0:0:0:
329,192,96876,1,10,0:0:0:0:
109,192,97176,1,2,0:0:0:0:
109,192,97326,1,2,0:0:0:0:
182,192,97476,128,10,97776:0:0:0:0:
402,192,97776,1,0,0:0:0:0:
256,192,98076,1,10,0:0:0:0:
402,192,98376,1,2,0:0:0:0:
329,192,98526,1,2,0:0:0:0:
256,192,98676,1,8,0:0:0:0:
182,192,98826,1,2,0:0:0:0:
329,192,98976,1,2,0:0:0:0:
256,192,99126,1,2,0:0:0:0:
182,192,99276,1,8,0:0:0:0:
109,192,99426,1,10,0:0:0:0:
475,192,99576,1,2,0:0:0:0:
475,192,99726,1,2,0:0:0:0:
402,192,99876,128,10,100176:0:0:0:0:
182,192,100176,1,0,0:0:0:0:
329,192,100476,1,10,0:0:0:0:
36,192,100776,1,2,0:0:0:0:
36,192,100926,1,2,0:0:0:0:
109,192,101076,128,10,101376:0:0:0:0:
329,192,101376,1,0,0:0:0:0:
182,192,101676,1,10,0:0:0:0:
402,192,101976,1,2,0:0:0:0:
402,192,102126,1,2,0:0:0:0:
329,192,102276,128,10,102576:0:0:0:0:
109,192,102576,1,0,0:0:0:0:
256,192,102876,1,10,0:0:0:0:
109,192,103176,1,4,0:0:0:0:
109,192,103326,1,4,0:0:0:0:
256,192,103626,1,4,0:0:0:0:
402,192,103926,1,4,0:0:0:0:
402,192,104076,1,12,0:0:0:0:
402,192,104226,1,6,0:0:0:0:
182,192,104376,5,0,1:0:0:0:
182,192,104526,1,0,1:0:0:0:
109,192,104676,128,2,104976:0:0:0:0:
329,192,104976,1,0,1:0:0:0:
329,192,105126,1,0,1:0:0:0:
402,192,105276,128,2,105576:0:0:0:0:
109,192,105576,1,0,1:0:0:0:
109,192,105726,1,0,1:0:0:0:
182,192,105876,128,2,106176:0:0:0:0:
402,192,106176,1,0,1:0:0:0:
402,192,106326,1,0,1:0:0:0:
329,192,106476,128,2,106776:0:0:0:0:
256,192,106776,128,0,107076:0:0:0:0:
182,192,107076,128,2,107376:0:0:0:0:
109,192,107376,128,0,107676:0:0:0:0:
36,192,107676,128,2,107976:0:0:0:0:
402,192,107976,128,0,108126:0:0:0:0:
329,192,108126,128,0,108276:0:0:0:0:
256,192,108276,128,2,108426:0:0:0:0:
182,192,108426,128,0,108576:0:0:0:0:
329,192,108576,1,0,1:0:0:0:
256,192,108726,1,0,1:0:0:0:
182,192,108876,1,2,1:0:0:0:
109,192,109026,1,2,1:0:0:0:
329,192,109176,1,0,1:0:0:0:
329,192,109326,1,0,1:0:0:0:
402,192,109476,128,2,109776:0:0:0:0:
182,192,109776,1,0,1:0:0:0:
182,192,109926,1,0,1:0:0:0:
109,192,110076,128,2,110376:0:0:0:0:
402,192,110376,1,0,1:0:0:0:
402,192,110526,1,0,1:0:0:0:
475,192,110676,128,2,110976:0:0:0:0:
109,192,110976,1,0,1:0:0:0:
109,192,111126,1,0,1:0:0:0:
36,192,111276,128,2,111576:0:0:0:0:
256,192,111576,128,0,111876:0:0:0:0:
329,192,111876,128,2,112176:0:0:0:0:
402,192,112176,128,0,112476:0:0:0:0:
475,192,112476,128,2,112776:0:0:0:0:
109,192,112776,1,0,1:0:0:0:
182,192,112926,1,0,1:0:0:0:
256,192,113076,1,2,1:0:0:0:
329,192,113226,1,0,1:0:0:0:
182,192,113376,128,0,113526:0:0:0:0:
256,192,113526,128,0,113676:0:0:0:0:
329,192,113676,128,2,113826:0:0:0:0:
402,192,113826,128,2,113976:0:0:0:0:
475,192,113976,1,0,1:0:0:0:
475,192,114126,1,0,1:0:0:0:
402,192,114276,128,2,114576:0:0:0:0:
36,192,114576,1,0,1:0:0:0:
36,192,114726,1,0,1:0:0:0:
109,192,114876,128,2,115176:0:0:0:0:
402,192,115176,1,0,1:0:0:0:
402,192,115326,1,0,1:0:0:0:
329,192,115476,128,2,115776:0:0:0:0:
109,192,115776,1,0,1:0:0:0:
109,192,115926,1,0,1:0:0:0:
182,192,116076,128,2,116376:0:0:0:0:
256,192,116376,128,0,116676:0:0:0:0:
329,192,116676,128,2,116976:0:0:0:0:
402,192,116976,128,0,117276:0:0:0:0:
475,192,117276,128,2,117576:0:0:0:0:
109,192,117576,128,0,117726:0:0:0:0:
182,192,117726,128,0,117876:0:0:0:0:
256,192,117876,128,2,118026:0:0:0:0:
329,192,118026,128,0,118176:0:0:0:0:
182,192,118176,1,0,1:0:0:0:
256,192,118326,1,0,1:0:0:0:
329,192,118476,1,2,1:0:0:0:
402,192,118626,1,2,1:0:0:0:
182,192,118776,1,0,1:0:0:0:
182,192,118926,1,0,1:0:0:0:
109,192,119076,128,2,119376:0:0:0:0:
329,192,119376,1,0,1:0:0:0:
329,192,119526,1,0,1:0:0:0:
402,192,119676,128,2,119976:0:0:0:0:
109,192,119976,1,0,1:0:0:0:
109,192,120126,1,0,1:0:0:0:
36,192,120276,128,2,120576:0:0:0:0:
402,192,120576,1,0,1:0:0:0:
402,192,120726,1,0,1:0:0:0:
475,192,120876,128,2,121176:0:0:0:0:
256,192,121176,128,0,121476:0:0:0:0:
182,192,121476,128,2,121776:0:0:0:0:
109,192,121776,128,0,122076:0:0:0:0:
36,192,122076,128,2,122376:0:0:0:0:
402,192,122376,1,0,1:0:0:0:
329,192,122526,1,0,1:0:0:0:
182,192,122826,1,0,1:0:0:0:
182,192,123126,1,0,0:0:0:0:
182,192,123426,1,0,0:0:0:0:
36,192,123576,128,2,125976:0:0:0:0:
